0 ETRG westworld s02e09 handmaids The Originals Family Guy The Originals S05E09 handmaid masterchef ddr cloak and dagger Into the badlands colony elementary Lost in Space 2018 s01e09 judge judy S22 big bang theory español condor Avengers Infinity War 2018 rampage The Walking Dead shooter jurassic world rampage 2018 Supergirl deadliest catch HARDCORE LESBIANS LOVERS Gotham etrg the 100 legion etmovies ready player one arrow español westworld S02 the expanse s03e11 star trek discovery español survivor MARLON ettv expanse natural beauties quantico deadpool 2 more s12e13 billions humans luke cage ethd S.W.A.T.2017.S01E01.HDTV.x264 KILLERS ettv handmaids tale the expanse 12 monkeys hindi young and beautiful The Flash masterchef australia six Dtone FEAR THE WALKING DEAD luke cage s02e01 code black evo handmaids tale s02e10 mary flower vikings the handmaids tale westworld fgt dtone avengers infinity war american horror story 
Warning! Use a VPN When Downloading Torrents!
Your IP Address is 185.251.71.80. Location is
Your Internet Provider is tracking your torrent activity! Hide your IP ADDRESS with a VPN!
We strongly recommend using ExpressVPN to anonymize your torrenting. 30 Day Money Back Guarantee!
Try it Now!
ETTV Recommended TV Shows
Condor.S01E03.WEBRip.x264-PBS[ettv] torrent
Marvels.Cloak.and.Dagger.S01E04.WEB.x264-TBS[ettv] torrent
Shooter.S03E01.HDTV.x264-KILLERS[ettv] torrent
Marvels.Luke.Cage.S02.1080p.NF.WEB-DL.DDP5.1.x264-NTb[ettv] torrent

ETTV Recommended Xvid
Truth.or.Dare.2018.EXTENDED.HDRip.XViD-ETRG torrent
The.Stolen.Princess.2018.HDRip.XviD.AC3-EVO[EtMovies] torrent
Distorted.2018.HDrip.XViD.AC3-ETRG torrent
Loving.Pablo.2018.HDRip.XviD.AC3-EVO[EtMovies] torrent

ETTV Recommended HD
The.Endless.2017.Multi.Bluray.1080p.x264.DTS-HDMA.5.1-DTOne torrent
Pacific.Rim.Uprising.2018.Mukti.UHD.2160p.Bluray.x265.HDR.Atmos.7.1-DTOne torrent
Unsane.2018.UHD.2160p.Bluray.x265.HDR.DTS-HDMA.5.1-DTOne torrent
Loving Pablo 2017 1080p WEB-DL DD5 1 H264-CMRG[EtHD] torrent

ETTV Recommended Cam
Hereditary 2018 HDCAM ENG x264-SugarTits torrent
The Incredibles 2 2018.HDCAM.XViD.AC3-ETRG torrent
I Feel Pretty 2018 New 720p HDCAM-X264-AC3-Cr@zyTribal torrent
Jurassic.World.Fallen.Kingdom(2018).720pHC.HDTS.x264.Dual. Audio.[Hindi - English] -DTOne torrent

ETTV Recommended Foreign
PADMAAVAT 2018 1080p Bluray mHD x264 DD 5.1 -DTOne torrent
The Escape of Prisoner 614 2018 BluRay 1080p x264 DTS-HD MA5.1 -DTOne torrent
Shaadi Teri Bajayenge Hum Band (2018) 1080p - UntoucheD WEB HD - AVC - AAC - DTOne Exclusive.mp4 torrent
October - 2018 - 1-3 DVDRip - x264 - AC3 5.1 - ESub - DTOne torrent

Social

Loading...

Download Torrent "Westworld S02E08 (1080p WEBRip x265 HEVC 10bit AAC 5.1 Joy) [UTR]"

IMDB Details
Description:

N/A

Genre:

N/A

Download Torrent (Magnet)
Download Torrent (File)
Seeds: 44
Leechers: 17
Completed: 1,517 
Last Checked: 14-06-2018 10:34:13


Loading...
Details
Title:Westworld S02E08 (1080p WEBRip x265 HEVC 10bit AAC 5.1 Joy) [UTR]
Description:





Media Information
General
Format                                   : Matroska
Format version                           : Version 4 / Version 2
File size                                : 613 MiB
Duration                                 : 1 h 0 min
Overall bit rate                         : 1 427 kb/s
Encoded date                             : UTC 2018-06-12 14:32:34
Writing application                      : mkvmerge v16.0.0 ('Protest') 64-bit
Writing library                          : libebml v1.3.5 + libmatroska v1.4.8
Writing frontend                         : StaxRip v1.7.0.3

Video
ID                                       : 1
Format                                   : HEVC
Format/Info                              : High Efficiency Video Coding
Format profile                           : Main [email protected]@Main
Codec ID                                 : V_MPEGH/ISO/HEVC
Duration                                 : 1 h 0 min
Bit rate                                 : 1 200 kb/s
Width                                    : 1 920 pixels
Height                                   : 1 080 pixels
Display aspect ratio                     : 16:9
Frame rate mode                          : Constant
Frame rate                               : 23.976 (24000/1001) FPS
Color space                              : YUV
Chroma subsampling                       : 4:2:0
Bit depth                                : 10 bits
Bits/(Pixel*Frame)                       : 0.024
Stream size                              : 516 MiB (84%)
Writing library                          : x265 2.7+2-22c127ff05d5:[Windows][MSVC 1900][64 bit] 10bit
Encoding settings                        : cpuid=1173503 / frame-threads=3 / numa-pools=8 / wpp / no-pmode / no-pme / no-psnr / ssim / log-level=2 / input-csp=1 / input-res=1920x1080 / interlace=0 / total-frames=86399 / level-idc=0 / high-tier=1 / uhd-bd=0 / ref=4 / no-allow-non-conformance / no-repeat-headers / annexb / no-aud / no-hrd / info / hash=0 / no-temporal-layers / open-gop / min-keyint=23 / keyint=250 / gop-lookahead=0 / bframes=4 / b-adapt=2 / b-pyramid / bframe-bias=0 / rc-lookahead=25 / lookahead-slices=4 / scenecut=40 / radl=0 / no-intra-refresh / ctu=64 / min-cu-size=8 / rect / no-amp / max-tu-size=32 / tu-inter-depth=1 / tu-intra-depth=1 / limit-tu=0 / rdoq-level=2 / dynamic-rd=0.00 / ssim-rd / signhide / no-tskip / nr-intra=0 / nr-inter=0 / no-constrained-intra / strong-intra-smoothing / max-merge=3 / limit-refs=3 / limit-modes / me=3 / subme=3 / merange=57 / temporal-mvp / weightp / weightb / no-analyze-src-pics / deblock=0:0 / sao / sao-non-deblock / rd=4 / no-early-skip / rskip / no-fast-intra / no-tskip-fast / no-cu-lossless / b-intra / no-splitrd-skip / rdpenalty=0 / psy-rd=5.00 / psy-rdoq=1.00 / no-rd-refine / no-lossless / cbqpoffs=0 / crqpoffs=0 / rc=abr / bitrate=1200 / qcomp=0.60 / qpstep=4 / stats-write=0 / stats-read=2 / cplxblur=20.0 / qblur=0.5 / ipratio=1.40 / pbratio=1.30 / aq-mode=2 / aq-strength=1.00 / cutree / zone-count=0 / no-strict-cbr / qg-size=32 / no-rc-grain / qpmax=69 / qpmin=0 / no-const-vbv / sar=0 / overscan=0 / videoformat=5 / range=0 / colorprim=2 / transfer=2 / colormatrix=2 / chromaloc=0 / display-window=0 / max-cll=0,0 / min-luma=0 / max-luma=1023 / log2-max-poc-lsb=8 / vui-timing-info / vui-hrd-info / slices=1 / no-opt-qp-pps / no-opt-ref-list-length-pps / multi-pass-opt-rps / scenecut-bias=0.05 / no-opt-cu-delta-qp / no-aq-motion / no-hdr / no-hdr-opt / no-dhdr10-opt / analysis-reuse-level=5 / scale-factor=0 / refine-intra=0 / refine-inter=0 / refine-mv=0 / limit-sao / ctu-info=0 / no-lowpass-dct / refine-mv-type=0 / copy-pic=1
Default                                  : Yes
Forced                                   : No

Audio
ID                                       : 2
Format                                   : AAC
Format/Info                              : Advanced Audio Codec
Format profile                           : HE-AAC / LC
Codec ID                                 : A_AAC
Duration                                 : 1 h 0 min
Bit rate                                 : 224 kb/s
Channel(s)                               : 6 channels
Channel positions                        : Front: L C R, Side: L R, LFE
Sampling rate                            : 48.0 kHz / 24.0 kHz
Frame rate                               : 23.438 FPS (1024 spf)
Compression mode                         : Lossy
Delay relative to video                  : 31 ms
Stream size                              : 96.3 MiB (16%)
Language                                 : English
Default                                  : Yes
Forced                                   : No

Subtitle #1
ID                                       : 3
Format                                   : UTF-8
Codec ID                                 : S_TEXT/UTF8
Codec ID/Info                            : UTF-8 Plain Text
Duration                                 : 59 min 54 s
Bit rate                                 : 13 b/s
Count of elements                        : 201
Stream size                              : 6.01 KiB (0%)
Language                                 : English
Default                                  : No
Forced                                   : No

Subtitle #2
ID                                       : 4
Format                                   : UTF-8
Codec ID                                 : S_TEXT/UTF8
Codec ID/Info                            : UTF-8 Plain Text
Duration                                 : 59 min 54 s
Bit rate                                 : 20 b/s
Count of elements                        : 329
Stream size                              : 8.82 KiB (0%)
Language                                 : English
Default                                  : No
Forced                                   : No

Source Information
Release: Westworld.S02E08.Kiksuya.1080p.AMZN.WEB-DL.DDP5.1.H.264-NTb.mkv (5.42 GBs)



UTR wrote:

Note From UTR
We have no issue with individuals posting or re-uploading our torrents on a platform we aren't on. However, if this is something you'd like to do, please do so in a 'as-is' format. We ask that you do not create a new torrent, include all descriptions you see above including the UTR logo, tags, notes and screenshots. If you'd like to become a permanent poster on a website we don't post to, feel free to get in contact with a UniTeam member.

If possible please donate: BTC 1QA5fum5AyXvWzdVCkQzUNvw3Ef15fHRaR


Category:TV > HEVC/x265
Lang:English  English
Total Size:613 MB
Info Hash:e531ae2b222e8b405fcde45b33b086dcc5a1ab0f
Added By:UTR
Date Added:14-06-2018 10:34:10

Files

File List: 
 File Size
Westworld S02E08 Kiksuya (1080p x265 10bit FS84 Joy).mkv613 MB



Loading...
Comments

There are currently no comments. Be the first one to write something !

Disclaimer: None of the files shown here are actually hosted or transmitted by this server. The links are provided solely by this site's users. The site moderation is also a service provided by the site's users. The administrator of this site (ettv.tv) cannot be held responsible for what its users post, or any other actions of its users. You may not use this site to distribute or download any material when you do not have the legal rights to do so. It is your own responsibility to adhere to these terms.